Taylor Swift - Shake It Off(2014年VMA颁奖典礼现场版)[1080i/TS/1.33GB]

 
发表在 4K MV 2018-7-7 20:21

Taylor Swift - Shake It Off(2014年VMA颁奖典礼现场版)[1080i/TS/1.33GB]


Taylor Swift - Shake It Off(2014年VMA颁奖典礼现场版)[1080i/TS/1.33GB]

Taylor Swift - Shake It Off(2014年VMA颁奖典礼现场版)[1080i/TS/1.33GB]

Taylor Swift - Shake It Off(2014年VMA颁奖典礼现场版)[1080i/TS/1.33GB]

Taylor Swift - Shake It Off(2014年VMA颁奖典礼现场版)[1080i/TS/1.33GB]

Taylor Swift - Shake It Off(2014年VMA颁奖典礼现场版)[1080i/TS/1.33GB]

Taylor Swift - Shake It Off(2014年VMA颁奖典礼现场版)[1080i/TS/1.33GB]

Taylor Swift - Shake It Off(2014年VMA颁奖典礼现场版)[1080i/TS/1.33GB]

Taylor Swift - Shake It Off(2014年VMA颁奖典礼现场版)[1080i/TS/1.33GB]

Taylor Swift - Shake It Off(2014年VMA颁奖典礼现场版)[1080i/TS/1.33GB]





















General
ID : 1 (0x1)
Complete name : Taylor Swift - Shake It Off 2014 VMA Awards 1080i HDTV Dolby E 36Mbps MPEG-2-CtrlHD.ts
Format : MPEG-TS
File size : 1.33 GiB
Duration : 4 min 54 s
Overall bit rate mode : Variable
Overall bit rate : 38.8 Mbps

Video
ID : 308 (0x134)
Menu ID : 1 (0x1)
Format : MPEG Video
Format version : Version 2
Format profile : 4:2:2@High
Format settings, BVOP : Yes
Format settings, Matrix : Custom
Format settings, GOP : M=3, N=15
Format settings, picture struc : Frame
Codec ID : 2
Duration : 4 min 54 s
Bit rate mode : Constant
Bit rate : 34.2 Mbps
Maximum bit rate : 35.1 Mbps
Width : 1920 pixels
Height : 1080 pixels
Display aspect ratio : 16:9
Frame rate : 29.970 (30000/1001) FPS
Color space : YUV
Chroma subsampling : 4:2:2
Bit depth : 8 bits
Scan type : Interlaced
Scan order : Top Field First
Compression mode : Lossy
Bits/(Pixel*Frame) : 0.550
Time code of first frame : 00:00:00;00
Time code source : Group of pictures header
GOP, Open/Closed : Open
Stream size : 1.17 GiB (88%)

Audio #1
ID : 256 (0x100)
Menu ID : 1 (0x1)
Format : MPEG Audio
Format version : Version 1
Format profile : Layer 2
Codec ID : 3
Duration : 4 min 54 s
Bit rate mode : Constant
Bit rate : 384 kbps
Channel(s) : 2 channels
Sampling rate : 48.0 kHz
Compression mode : Lossy
Delay relative to video : 7 ms
Stream size : 13.5 MiB (1%)
Language : English

Audio #2
ID : 257 (0x101)-1
Menu ID : 1 (0x1)
Format : Dolby E
Mode : 20
Format settings, Endianness : Little
Muxing mode : SMPTE ST 302 / SMPTE ST 337
Codec ID : 6
Duration : 4 min 54 s
Bit rate mode : Constant
Encoded bit rate : 2304 kbps
Channel(s) : 6 channels
Channel positions : Front: L C R, Side: L R, LFE
Sampling rate : 48.0 kHz
Frame rate : 29.970 FPS (1601.6 spf)
Bit depth : 20 bits

Audio #3
ID : 257 (0x101)-2
Menu ID : 1 (0x1)
Format : Dolby E
Mode : 20
Format settings, Endianness : Little
Muxing mode : SMPTE ST 302 / SMPTE ST 337
Codec ID : 6
Duration : 4 min 54 s
Bit rate mode : Constant
Encoded bit rate : 0 bps
Channel(s) : 2 channels
Channel positions : Front: L R
Sampling rate : 48.0 kHz
Frame rate : 29.970 FPS (1601.6 spf)
Bit depth : 20 bits
播放器 : Potplaye/MPC-HC
游客,如果您要查看本帖隐藏内容请回复








上一篇:金泫雅HyunA《How's this》4K MV视频现场版/30fps[557MB]
下一篇:Taylor Swift - Blank Space(2015年全英音乐奖现场版)[1080i/TS/1.37GB]
当贝市场
28 个回复
倒序浏览
高手云集 果断围观
keolll发烧级投影控 发表于 2018-7-8 23:37 显示全部楼层
占坑编辑ing
分析得不错!
支持一下!支持投影网发展
sandboy初级投影控 发表于 2018-7-20 08:42 显示全部楼层
这个资源不错,收了!
我擦!我要沙发!
slkego发烧级投影控 发表于 2018-7-25 10:18 显示全部楼层
高手云集 果断围观
gyu中级投影控 发表于 2018-8-10 10:32 显示全部楼层
先收藏了,感谢!
Eric入门级投影控 发表于 2018-8-13 14:46 显示全部楼层
好内容,果断马克了!

快速回复

您需要登录后才可以回帖 登录 | 立即注册

本版积分规则

热门图文

热门板块
关闭

热点推荐上一条 /1 下一条

28快速回复