[4K电影]

游侠索罗:星球大战 [4K-REMUX+BD多版本4K下载]

 
发表在 4K视频 2018-9-17 13:11
游侠索罗:星球大战 [4K-REMUX+BD多版本4K下载]

◎译  名 游侠索罗:星球大战外传/韩索罗:星球大战外传(港)/星球大战外传:游侠索罗/星球大战外传:索罗/星球大战韩·索罗外传/游侠索罗/韩索罗外传/星战外传2
◎片  名 Solo: A Star Wars Story
◎年  代 2018
◎产  地 美国
◎类  别 动作/科幻/冒险
◎语  言 英语
◎上映日期 2018-05-10(洛杉矶首映)/2018-05-25(美国)/2018-05-25(中国大陆)
◎片  长 135分钟
◎导  演 朗·霍华德 Ron Howard
◎主  演 阿尔登·埃伦瑞奇 Alden Ehrenreich
      艾米莉亚·克拉克 Emilia Clarke
      伍迪·哈里森 Woody Harrelson
      唐纳德·格洛弗 Donald Glover
      保罗·贝坦尼 Paul Bettany
      乔纳斯·索塔莫 Joonas Suotamo
      菲比·沃勒-布里奇 Phoebe Waller-Bridge
      沃维克·戴维斯 Warwick Davis
      坦迪·牛顿 Thandie Newton
      克林特·霍华德 Clint Howard
      伊安·肯尼 Ian Kenny
      理查德·迪克森 Richard Dixon

◎简  介

  在《游侠索罗》(暂译)中,影迷们将跟随“千年隼号”及银河系中最受爱戴的“恶棍”韩·索罗,迎来全新的银河系探险旅程。经过在黑暗危险的罪犯地下社会中的重重冒险,韩·索罗遇见了他未来强大的副驾驶丘巴卡、以及臭名昭著的赌徒兰多·卡瑞辛,共同展开了一场星战传奇中最不“正统”的英雄历程。

Video
ID : 1
Format : HEVC
Format/Info : High Efficiency Video Coding
Commercial name : HDR10
Format profile : Main 10@L5.1@High
Codec ID : V_MPEGH/ISO/HEVC
Duration : 2 h 14 min
Bit rate : 43.1 Mb/s
Width : 3 840 pixels
Height : 2 160 pixels
Display aspect ratio : 16:9
Frame rate mode : Constant
Frame rate : 23.976 (24000/1001) FPS
Color space : YUV
Chroma subsampling : 4:2:0 (Type 2)
Bit depth : 10 bits
Bits/(Pixel*Frame) : 0.217
Stream size : 40.6 GiB (75%)
Title : Solo.A.Star.Wars.Story.2018.2160p.BluRay.REMUX.HEVC.DTS-HD.MA.TrueHD.7.1.Atmos-FGT
Writing library : ATEME Titan File 3.8.16 (4.8.16.0)
Default : Yes
Forced : No
Color range : Limited
Color primaries : BT.2020
Transfer characteristics : PQ
Matrix coefficients : BT.2020 non-constant
Mastering display color primaries : Display P3
Mastering display luminance : min: 0.0001 cd/m2, max: 1000 cd/m2

Audio #1
ID : 2
Format : TrueHD
Format profile : TrueHD+Atmos / TrueHD
Codec ID : A_TRUEHD
Duration : 2 h 14 min
Bit rate mode : Variable
Bit rate : 4 981 kb/s
Maximum bit rate : 4 647 kb/s
Channel(s) : Object Based / 8 channels
Channel positions : Object Based / Front: L C R, Side: L R, Back: L R, LFE
Sampling rate : / 48.0 kHz
Frame rate : 1 200.000 FPS (40 SPF)
Compression mode : Lossless
Stream size : 4.69 GiB (9%)
Title : Solo.A.Star.Wars.Story.2018.2160p.BluRay.REMUX.HEVC.DTS-HD.MA.TrueHD.7.1.Atmos-FGT
Language : English
Default : Yes
Forced : No

Audio #2
ID : 3
Format : DTS
Format/Info : Digital Theater Systems
Format profile : MA / Core
Codec ID : A_DTS
Duration : 2 h 14 min
Bit rate mode : Variable / Constant
Bit rate : 5 407 kb/s / 1 509 kb/s
Channel(s) : 8 channels / 6 channels
Channel positions : Front: L C R, Side: L R, Back: L R, LFE / Front: L C R, Side: L R, LFE
Sampling rate : 48.0 kHz
Frame rate : 93.750 FPS (512 SPF)
Bit depth : 24 bits
Compression mode : Lossless / Lossy
Stream size : 5.09 GiB (9%)
Title : Solo.A.Star.Wars.Story.2018.2160p.BluRay.REMUX.HEVC.DTS-HD.MA.TrueHD.7.1.Atmos-FGT
Language : English
Default : No
Forced : No

Audio #3
ID : 4
Format : AC-3
Format/Info : Audio Coding 3
Codec ID : A_AC3
Duration : 2 h 14 min
Bit rate mode : Constant
Bit rate : 640 kb/s
Channel(s) : 6 channels
Channel positions : Front: L C R, Side: L R, LFE
Sampling rate : 48.0 kHz
Frame rate : 31.250 FPS (1536 SPF)
Bit depth : 16 bits
Compression mode : Lossy
Stream size : 617 MiB (1%)
Title : Solo.A.Star.Wars.Story.2018.2160p.BluRay.REMUX.HEVC.DTS-HD.MA.TrueHD.7.1.Atmos-FGT
Language : English
Service kind : Complete Main
Default : No
Forced : No

Audio #4
ID : 5
Format : AC-3
Format/Info : Audio Coding 3
Codec ID : A_AC3
Duration : 2 h 14 min
Bit rate mode : Constant
Bit rate : 320 kb/s
Channel(s) : 2 channels
Channel positions : Front: L R
Sampling rate : 48.0 kHz
Frame rate : 31.250 FPS (1536 SPF)
Bit depth : 16 bits
Compression mode : Lossy
Stream size : 308 MiB (1%)
Title : Solo.A.Star.Wars.Story.2018.2160p.BluRay.REMUX.HEVC.DTS-HD.MA.TrueHD.7.1.Atmos-FGT
Language : English
Service kind : Complete Main
Default : No
Forced : No

Audio #5
ID : 6
Format : E-AC-3
Format/Info : Enhanced Audio Coding 3
Codec ID : A_EAC3
Duration : 2 h 14 min
Bit rate mode : Constant
Bit rate : 500 b/s
Channel(s) : 8 channels
Channel(s)_Original : 6 channels
Channel positions : Front: L C R, Side: L R, LFE
Sampling rate : 48.0 kHz
Frame rate : 187.500 FPS (256 SPF)
Compression mode : Lossy
Stream size : 987 MiB (2%)
Title : Solo.A.Star.Wars.Story.2018.2160p.BluRay.REMUX.HEVC.DTS-HD.MA.TrueHD.7.1.Atmos-FGT
Language : French
Service kind : Complete Main
Default : No
Forced : No

Audio #6
ID : 7
Format : E-AC-3
Format/Info : Enhanced Audio Coding 3
Codec ID : A_EAC3
Duration : 2 h 14 min
Bit rate mode : Constant
Bit rate : 500 b/s
Channel(s) : 8 channels
Channel(s)_Original : 6 channels
Channel positions : Front: L C R, Side: L R, LFE
Sampling rate : 48.0 kHz
Frame rate : 187.500 FPS (256 SPF)
Compression mode : Lossy
Stream size : 987 MiB (2%)
Title : Solo.A.Star.Wars.Story.2018.2160p.BluRay.REMUX.HEVC.DTS-HD.MA.TrueHD.7.1.Atmos-FGT
Language : Spanish
Service kind : Complete Main
Default : No
Forced : No

Audio #7
ID : 8
Format : AC-3
Format/Info : Audio Coding 3
Codec ID : A_AC3
Duration : 2 h 14 min
Bit rate mode : Constant
Bit rate : 640 kb/s
Channel(s) : 6 channels
Channel positions : Front: L C R, Side: L R, LFE
Sampling rate : 48.0 kHz
Frame rate : 31.250 FPS (1536 SPF)
Bit depth : 16 bits
Compression mode : Lossy
Stream size : 617 MiB (1%)
Title : Solo.A.Star.Wars.Story.2018.2160p.BluRay.REMUX.HEVC.DTS-HD.MA.TrueHD.7.1.Atmos-FGT
Language : Thai
Service kind : Complete Main
Default : No
Forced : No

Text #1
ID : 9
Format : PGS
Muxing mode : zlib
Codec ID : S_HDMV/PGS
Codec ID/Info : Picture based subtitle format used on BDs/HD-DVDs
Duration : 2 h 5 min
Bit rate : 42.1 kb/s
Count of elements : 4496
Stream size : 37.7 MiB (0%)
Title : English-PGS
Language : English
Default : Yes
Forced : No

Text #2
ID : 10
Format : PGS
Muxing mode : zlib
Codec ID : S_HDMV/PGS
Codec ID/Info : Picture based subtitle format used on BDs/HD-DVDs
Duration : 2 h 7 min
Bit rate : 31.6 kb/s
Count of elements : 3688
Stream size : 28.8 MiB (0%)
Title : French-PGS
Language : French
Default : No
Forced : No

Text #3
ID : 11
Format : PGS
Muxing mode : zlib
Codec ID : S_HDMV/PGS
Codec ID/Info : Picture based subtitle format used on BDs/HD-DVDs
Duration : 2 h 7 min
Bit rate : 33.8 kb/s
Count of elements : 3672
Stream size : 30.8 MiB (0%)
Title : Spanish-PGS
Language : Spanish
Default : No
Forced : No

Text #4
ID : 12
Format : PGS
Muxing mode : zlib
Codec ID : S_HDMV/PGS
Codec ID/Info : Picture based subtitle format used on BDs/HD-DVDs
Duration : 2 h 7 min
Bit rate : 18.2 kb/s
Count of elements : 3616
Stream size : 16.6 MiB (0%)
Title : Korean-PGS
Language : Korean
Default : No
Forced : No

Text #5
ID : 13
Format : PGS
Muxing mode : zlib
Codec ID : S_HDMV/PGS
Codec ID/Info : Picture based subtitle format used on BDs/HD-DVDs
Duration : 2 h 7 min
Bit rate : 24.6 kb/s
Count of elements : 3642
Stream size : 22.4 MiB (0%)
Title : Thai-PGS
Language : Thai
Default : No
Forced : No

Text #6
ID : 14
Format : PGS
Muxing mode : zlib
Codec ID : S_HDMV/PGS
Codec ID/Info : Picture based subtitle format used on BDs/HD-DVDs
Duration : 2 h 7 min
Bit rate : 20.6 kb/s
Count of elements : 3640
Stream size : 18.8 MiB (0%)
Title : Chinese-PGS
Language : Chinese
Default : No
Forced : No

Text #7
ID : 15
Format : PGS
Muxing mode : zlib
Codec ID : S_HDMV/PGS
Codec ID/Info : Picture based subtitle format used on BDs/HD-DVDs
Duration : 2 h 7 min
Bit rate : 23.8 kb/s
Count of elements : 3642
Stream size : 21.7 MiB (0%)
Title : Chinese-PGS
Language : Chinese
Default : No
Forced : No

Text #8
ID : 16
Format : PGS
Muxing mode : zlib
Codec ID : S_HDMV/PGS
Codec ID/Info : Picture based subtitle format used on BDs/HD-DVDs
Duration : 1 h 20 min
Bit rate : 416 b/s
Count of elements : 42
Stream size : 246 KiB (0%)
Title : English-FORCED-PGS
Language : English
Default : No
Forced : No

Text #9
ID : 17
Format : PGS
Muxing mode : zlib
Codec ID : S_HDMV/PGS
Codec ID/Info : Picture based subtitle format used on BDs/HD-DVDs
Duration : 2 h 7 min
Bit rate : 552 b/s
Count of elements : 82
Stream size : 516 KiB (0%)
Title : French-FORCED-PGS
Language : French
Default : No
Forced : No

Text #10
ID : 18
Format : PGS
Muxing mode : zlib
Codec ID : S_HDMV/PGS
Codec ID/Info : Picture based subtitle format used on BDs/HD-DVDs
Duration : 1 h 20 min
Bit rate : 420 b/s
Count of elements : 42
Stream size : 248 KiB (0%)
Title : Spanish-FORCED-PGS
Language : Spanish
Default : No
Forced : No

Text #11
ID : 19
Format : PGS
Muxing mode : zlib
Codec ID : S_HDMV/PGS
Codec ID/Info : Picture based subtitle format used on BDs/HD-DVDs
Duration : 1 h 20 min
Bit rate : 305 b/s
Count of elements : 42
Stream size : 180 KiB (0%)
Title : Thai-FORCED-PGS
Language : Thai
Default : No
Forced : No

Menu
00:00:00.000 : :Chapter 1
00:00:53.845 : :Chapter 2
00:02:10.213 : :Chapter 3
00:03:53.149 : :Chapter 4
00:06:00.485 : :Chapter 5
00:09:27.566 : :Chapter 6
00:13:16.045 : :Chapter 7
00:14:14.019 : :Chapter 8
00:16:12.262 : :Chapter 9
00:19:45.100 : :Chapter 10
00:22:43.820 : :Chapter 11
00:24:37.267 : :Chapter 12
00:27:00.035 : :Chapter 13
00:30:02.926 : :Chapter 14
00:32:54.680 : :Chapter 15
00:39:09.764 : :Chapter 16
00:41:59.224 : :Chapter 17
00:43:20.180 : :Chapter 18
00:44:32.127 : :Chapter 19
00:48:03.755 : :Chapter 20
00:51:58.323 : :Chapter 21
00:53:17.527 : :Chapter 22
00:57:23.523 : :Chapter 23
01:00:16.779 : :Chapter 24
01:02:40.882 : :Chapter 25
01:04:51.262 : :Chapter 26
01:05:29.508 : :Chapter 27
01:07:12.027 : :Chapter 28
01:08:05.915 : :Chapter 29
01:10:00.112 : :Chapter 30
01:12:44.193 : :Chapter 31
01:14:40.851 : :Chapter 32
01:18:30.872 : :Chapter 33
01:23:15.740 : :Chapter 34
01:26:32.645 : :Chapter 35
01:30:33.135 : :Chapter 36
01:35:19.672 : :Chapter 37
01:37:04.860 : :Chapter 38
01:38:52.801 : :Chapter 39
01:41:18.530 : :Chapter 40
01:43:02.676 : :Chapter 41
01:45:27.821 : :Chapter 42
01:46:32.177 : :Chapter 43
01:49:45.996 : :Chapter 44
01:53:33.890 : :Chapter 45
01:57:13.901 : :Chapter 46
01:58:55.127 : :Chapter 47
02:01:34.829 : :Chapter 48
02:03:20.893 : :Chapter 49
02:06:09.353 : :Chapter 50


游侠索罗:星球大战 [4K-REMUX+BD多版本4K下载] 游侠索罗:星球大战 [4K-REMUX+BD多版本4K下载] 游侠索罗:星球大战 [4K-REMUX+BD多版本4K下载] 游侠索罗:星球大战 [4K-REMUX+BD多版本4K下载] 游侠索罗:星球大战 [4K-REMUX+BD多版本4K下载] 游侠索罗:星球大战 [4K-REMUX+BD多版本4K下载] 游侠索罗:星球大战 [4K-REMUX+BD多版本4K下载]

4K-REMUX版本
游客,如果您要查看本帖隐藏内容请回复

4K-蓝光*264杜比版本
游客,如果您要查看本帖隐藏内容请回复

4K-蓝光*265.HDR杜比版本
游客,如果您要查看本帖隐藏内容请回复

4K-蓝光*265杜比版本
游客,如果您要查看本帖隐藏内容请回复



上一篇:[LG.4K.演示片] Apink_MrChu_HEVC 4K视频下载
下一篇:蝙蝠侠:突袭阿卡姆 [4K-原盘+REMUX+BD多版本4K下载]
当贝市场
15 个回复
倒序浏览
支持你哈........
先收藏了,感谢!
先收藏了,感谢!
感谢分享
先收藏了,感谢!
支持一下!支持投影网发展
sksf发烧级投影控 发表于 2018-10-2 11:21 显示全部楼层
投影网大神带带我
匿名  发表于 2018-10-2 14:50
下载
匿名  发表于 2018-10-2 14:51
下载

快速回复

您需要登录后才可以回帖 登录 | 立即注册

本版积分规则

热门图文

热门板块
关闭

热点推荐上一条 /1 下一条

15快速回复