冲绳美丽海水族馆,奇妙海底世界

 
发表在 4K MV 2016-12-7 20:33

冲绳美丽海水族馆,奇妙海底世界 冲绳美丽海水族馆,奇妙海底世界 冲绳美丽海水族馆,奇妙海底世界 冲绳美丽海水族馆,奇妙海底世界 冲绳美丽海水族馆,奇妙海底世界 冲绳美丽海水族馆,奇妙海底世界 冲绳美丽海水族馆,奇妙海底世界 冲绳美丽海水族馆,奇妙海底世界 冲绳美丽海水族馆,奇妙海底世界


General

Unique ID : 180129382611220773925846520275536924815 (0x8783A83D2D6C4A9EBC1D37BB3FFF508F)
Complete name : SONY.4K.DEMO_Beautiful.Sea.In.Okinawa.mkv
Format : Matroska
Format version : Version 4 / Version 2
File size : 686 MiB
Duration : 1 min 59 s
Overall bit rate : 48.3 Mbps
Encoded date : UTC 2016-03-29 07:54:19
Writing application : mkvmerge v9.0.1 ('Obstacles') 64bit
Writing library : libebml v1.3.3 + libmatroska v1.4.4

Video
ID : 1
Format : AVC
Format/Info : Advanced Video Codec
Format profile : High@L5.1
Format settings, CABAC : Yes
Format settings, RefFrames : 4 frames
Codec ID : V_MPEG4/ISO/AVC
Duration : 1 min 59 s
Bit rate : 47.1 Mbps
Width : 3840 pixels
Height : 2160 pixels
Display aspect ratio : 16:9
Frame rate mode : Constant
Frame rate : 29.970 (30000/1001) FPS
Color space : YUV
Chroma subsampling : 4:2:0
Bit depth : 8 bits
Scan type : Progressive
Bits/(Pixel*Frame) : 0.189
Stream size : 669 MiB (98%)
Writing library : x264 core 142 r2479 dd79a61
Encoding settings : cabac=1 / ref=4 / deblock=1:-1:-1 / analyse=0x3:0x113 / me=umh / subme=10 / psy=1 / psy_rd=1.00:0.15 / mixed_ref=1 / me_range=24 / chroma_me=1 / trellis=2 / 8x8dct=1 / cqm=0 / deadzone=21,11 / fast_pskip=1 / chroma_qp_offset=-3 / threads=12 / lookahead_threads=1 / sliced_threads=0 / nr=0 / decimate=1 / interlaced=0 / bluray_compat=0 / constrained_intra=0 / bframes=3 / b_pyramid=2 / b_adapt=2 / b_bias=0 / direct=1 / weightb=1 / open_gop=0 / weightp=2 / keyint=300 / keyint_min=30 / scenecut=40 / intra_refresh=0 / rc_lookahead=60 / rc=crf / mbtree=1 / crf=15.0 / qcomp=0.60 / qpmin=0 / qpmax=69 / qpstep=4 / vbv_maxrate=50000 / vbv_bufsize=60000 / crf_max=0.0 / nal_hrd=none / filler=0 / ip_ratio=1.40 / aq=1:1.00
Language : English
Default : Yes
Forced : No
Color range : Limited
Color primaries : BT.709
Transfer characteristics : BT.709
Matrix coefficients : BT.709

Audio
ID : 2
Format : AC-3
Format/Info : Audio Coding 3
Format settings, Endianness : Big
Codec ID : A_AC3
Duration : 1 min 59 s
Bit rate mode : Constant
Bit rate : 224 kbps
Channel(s) : 2 channels
Channel positions : Front: L R
Sampling rate : 48.0 kHz
Frame rate : 31.250 FPS (1536 SPF)
Bit depth : 16 bits
Compression mode : Lossy
Delay relative to video : -5 ms
Stream size : 3.18 MiB (0%)
Language : English
Service kind : Complete Main
Default : Yes
Forced : No
播放器 : Potplaye/MPC-HC
建议在大屏幕电视上观看才能体验最佳效果

下载地址:
游客,如果您要查看本帖隐藏内容请回复





上一篇:韩国女团少女时代演唱会现场,震撼演出
下一篇:【震撼】女神Taylor Swift 奖典礼现场版
当贝市场
回复

使用道具 举报

34 个回复
倒序浏览
l001初级投影控 发表于 2018-10-10 17:53 显示全部楼层
冲绳美丽海水族馆,奇妙海底世界
回复

使用道具 举报

6666666666666666666666
回复

使用道具 举报

209jgk发烧级投影控 发表于 2017-1-3 10:40 显示全部楼层
果断马克!
回复

使用道具 举报

ksgoK发烧级投影控 发表于 2017-1-7 04:57 显示全部楼层
智能投影大家喜欢哪个品牌
回复

使用道具 举报

ongoo发烧级投影控 发表于 2017-1-12 20:28 显示全部楼层
投影机器品牌越来越多了
回复

使用道具 举报

感恩无私的分享的好人
回复

使用道具 举报

昕宇789VIP达人组 发表于 2017-1-20 05:22 显示全部楼层
这个资源不错,收了!
回复

使用道具 举报

感谢楼主分享
回复

使用道具 举报

高手云集 果断围观
回复

使用道具 举报

投影网大神带带我
回复

使用道具 举报

昕宇789VIP达人组 发表于 2018-8-5 20:14 显示全部楼层
真是难得给力投影知识。
回复

使用道具 举报

快速回复

您需要登录后才可以回帖 登录 | 立即注册

本版积分规则

热门图文

热门板块
34快速回复