Taeyeon高清MV,清纯可人

 
发表在 4K MV 2016-12-8 22:08
本帖最后由 撇捺 于 2018-4-24 13:05 编辑


General

Complete name : [MV] Taeyeon - I 2160P 60fps.mp4
Format : MPEG-4
Format version : Base Media / Version 2
Codec ID : mp42 (mp41/isom)
File size : 1.04 GiB
Duration : 4mn 59s
Overall bit rate : 29.8 Mbps
Encoded date : UTC 2016-03-01 10:00:38
Tagged date : UTC 2016-03-01 10:00:38
Cover : Yes

Video

ID : 1
Format : HEVC
Format/Info : High Efficiency Video Coding
Format profile : Main@L5.1@Main
Codec ID : hev1
Codec ID/Info : High Efficiency Video Coding
Duration : 4mn 59s
Source duration : 4mn 59s
Bit rate : 29.7 Mbps
Width : 3840 pixels
Height : 2160 pixels
Display aspect ratio : 16:9
Frame rate mode : Variable
Frame rate : 59.940 (60000/1001) fps
Minimum frame rate : 58.822 fps
Maximum frame rate : 62.503 fps
Color space : YUV
Chroma subsampling : 4:2:0
Bit depth : 8 bits
Bits/(Pixel*Frame) : 0.060
Stream size : 1.04 GiB (100%)
Encoded date : UTC 2016-03-01 10:00:38
Tagged date : UTC 2016-03-01 10:00:38
mdhd_Duration : 299215

Audio
ID : 2
Format : AAC
Format/Info : Advanced Video Codec
Mode extension : LC
Codec ID : 40
Duration : 4mn 59s
Bit rate mode : Constant
Bit rate : 128 Kbps
Channel(s) : 2 channels
Channel positions : Front: L R
Sampling rate : 44.1 KHz
Frame rate : 43.066 fps (1024 spf)
Compression mode : Lossy
Stream size : 4.69 MiB (0%)
Encoded date : UTC 2016-03-01 10:00:38
Tagged date : UTC 2016-03-01 10:00:38
播放器 : Potplaye

下载地址:
此处内容被隐藏,回复本帖后可见





上一篇:《冰雪奇缘》主题曲Let It Go梦幻合奏
下一篇:《The 2nd Law》摇滚乐队现场版
当贝市场
66 个回复
倒序浏览
先露个脸,还有不少东西值得学习的投影知识。
有没有资源啊,刚一个没有链接了
666我高级投影控 发表于 2017-1-4 11:50 显示全部楼层
投影机器品牌越来越多了
gknlln发烧级投影控 发表于 2017-1-4 15:22 显示全部楼层
这个资源不错 收了
111111111111111111111111
arukereso.hu
g35s
mlcbcnmnnnd入门级投影控 发表于 2018-6-16 13:13 投影网手机版 显示全部楼层
666
666699999
fwsyl入门级投影控 发表于 2018-6-23 08:51 显示全部楼层
先收藏了,感谢!
感谢楼主分享
好内容,果断马克了!
wwx506488初级投影控 发表于 2018-8-9 00:24 显示全部楼层
先收藏了,感谢!
gyu初级投影控 发表于 2018-8-10 10:23 显示全部楼层
先收藏了,感谢!
缘分-天空版主 发表于 2018-8-14 21:28 显示全部楼层
支持投影网发展!

快速回复

您需要登录后才可以回帖 登录 | 立即注册

本版积分规则

热门图文

热门板块
66快速回复