[DTS]

「无损音质4K视频」专业DTS:X 7.1环绕声视频演示片 [924MB]

 
发表在 杜比音效 2018-5-15 15:11
「无损音质4K视频」专业DTS:X  7.1环绕声视频演示片 [924MB]

「无损音质4K视频」专业DTS:X  7.1环绕声视频演示片 [924MB]

「无损音质4K视频」专业DTS:X  7.1环绕声视频演示片 [924MB]

「无损音质4K视频」专业DTS:X  7.1环绕声视频演示片 [924MB]

「无损音质4K视频」专业DTS:X  7.1环绕声视频演示片 [924MB]

「无损音质4K视频」专业DTS:X  7.1环绕声视频演示片  - 出盒 (高码率 HEVC 10bit)[2160P/MKV/523MB/305MB/102MB](三版本)(无损音质)

General

Complete name : DTS_X_Out_of_the_Box_(Long)_(Lossless)_(UHD-DWEU).mkv
Format : Matroska
Format version : Version 4 / Version 2
File size : 523 MiB
Duration : 59 s 979 ms
Overall bit rate : 73.1 Mbps
Encoded date : UTC 2018-01-24 18:48:35
Writing application : mkvmerge v20.0.0 ('I Am The Sun') 64-bit
Writing library : libebml v1.3.5 + libmatroska v1.4.8

Video

ID : 1
Format : HEVC
Format/Info : High Efficiency Video Coding
Format profile : Main 10@L5.1@High
Codec ID : V_MPEGH/ISO/HEVC
Duration : 59 s 977 ms
Bit rate : 66.7 Mbps
Width : 3840 pixels
Height : 2160 pixels
Display aspect ratio : 16:9
Frame rate mode : Constant
Frame rate : 23.976 (24000/1001) FPS
Color space : YUV
Chroma subsampling : 4:2:0
Bit depth : 10 bits
Bits/(Pixel*Frame) : 0.336
Stream size : 477 MiB (91%)
Writing library : ATEME Titan KFE 3.7.3 (4.7.3.1003)
Default : Yes
Forced : No
Color range : Limited
Color primaries : BT.709
Transfer characteristics : BT.709
Matrix coefficients : BT.709

Audio

ID : 2
Format : DTS
Format/Info : Digital Theater Systems
Format profile : X / MA / Core
Codec ID : A_DTS
Duration : 59 s 979 ms
Bit rate mode : Variable / Variable / Constant
Bit rate : 6368 kbps / 6368 kbps / 1509 kbps
Channel(s) : Object Based / 8 channels / 6 channels
Channel positions : Object Based / Front: L C R, Side: L R, Back: L R, LFE / Front: L C R, Side: L R, LFE
Sampling rate : / 48.0 kHz / 48.0 kHz
Frame rate : 93.750 FPS (512 SPF)
Bit depth : / 24 bits / 24 bits
Compression mode : / Lossless / Lossy
Stream size : 45.5 MiB (9%)
Default : Yes
Forced : No



作为杜比全景声的宿敌 DTS:X,同样给你带来超前震撼的视听感受

本视频分成3个版本,最高版本为4K分辨率,对设备要求更高,属于发烧级精品!

下载地址:

游客,如果您要查看本帖隐藏内容请回复



上一篇:杜比全景声(Dolby Atmos)10大音效视频 超感官真实体验![3.4G]
下一篇:专业DTS:X 7.1环绕声测试演示片《目标模拟器》无损音质4K/615MB
当贝市场
回复

使用道具 举报

124 个回复
倒序浏览
guzl入门级投影控 发表于 2018-10-9 12:03 显示全部楼层
解压密码 : 4K123专业DTS:X 7.1环绕声测试演示片《目标模拟器》无损音质4K/615MB
回复

使用道具 举报

wang971入门级投影控 发表于 2018-9-16 00:03 显示全部楼层
解压密码 : 4K123专业DTS:X 7.1环绕声测试演示片《目标模拟器》无损音质4K/615MB
回复

使用道具 举报

 楼主 米米管理员 发表于 2018-5-15 16:00 显示全部楼层

DTS:X 和杜比全景声哪个更好?对比告诉你区别
http://www.touying.com/t/9872/1

回复

使用道具 举报

试试看
回复

使用道具 举报

来看看啥效果
回复

使用道具 举报

1111111111111111111111111
回复

使用道具 举报

luting高级投影控 发表于 2018-5-25 22:12 显示全部楼层
回复一下;谢谢!
回复

使用道具 举报

折纸入门级投影控 发表于 2018-5-30 13:38 显示全部楼层
投影网大神带带我
回复

使用道具 举报

luting高级投影控 发表于 2018-5-31 16:26 显示全部楼层
解压提示损坏;不能解压!麻烦楼主重新上传!谢谢!
回复

使用道具 举报

不错不错,谢谢
回复

使用道具 举报

感恩无私的分享的好人
回复

使用道具 举报

快速回复

您需要登录后才可以回帖 登录 | 立即注册

本版积分规则

热门图文

热门板块
124快速回复