[杜比]

杜比Dolby Vision 5.1声道视频4K演示片 五彩斑斓的色彩![298MB]

 
发表在 杜比音效 2018-5-15 15:46
杜比Dolby Vision 5.1声道视频4K演示片  五彩斑斓的色彩![298MB]

杜比Dolby Vision 5.1声道视频4K演示片  五彩斑斓的色彩![298MB]

杜比Dolby Vision 5.1声道视频4K演示片  五彩斑斓的色彩![298MB]

杜比Dolby Vision 5.1声道视频4K演示片  五彩斑斓的色彩![298MB]

杜比Dolby Vision 5.1声道视频4K演示片  五彩斑斓的色彩![298MB]

杜比Dolby Vision 5.1声道视频4K演示片  五彩斑斓的色彩![298MB]

杜比Dolby Vision 5.1声道视频4K演示片  五彩斑斓的色彩![298MB]

General
ID : 1 (0x1)
Complete name : LG.HDR.4K.DEMO_Dolby.Trailer-OLED.ts
Format : MPEG-TS
File size : 298 MiB
Duration : 1 min 17 s
Overall bit rate mode : Constant
Overall bit rate : 32.1 Mbps

Video
ID : 33 (0x21)
Menu ID : 2 (0x2)
Format : HEVC
Format/Info : High Efficiency Video Coding
Format profile : Main 10@L5@Main
Codec ID : 36
Duration : 1 min 16 s
Bit rate : 29.7 Mbps
Width : 3840 pixels
Height : 2160 pixels
Display aspect ratio : 16:9
Frame rate : 23.976 (24000/1001) FPS
Color space : YUV
Chroma subsampling : 4:2:0
Bit depth : 10 bits
Bits/(Pixel*Frame) : 0.150
Stream size : 273 MiB (91%)

Audio
ID : 35 (0x23)
Menu ID  : 2 (0x2)
Format : E-AC-3
Format/Info : Enhanced Audio Coding 3
Format settings, Endianness : Big
Codec ID : 135
Duration : 1 min 17 s
Bit rate mode : Constant
Bit rate : 768 kbps
Channel(s) : 6 channels(=5.1声道)
Channel positions : Front: L C R, Side: L R, LFE

Sampling rate : 48.0 kHz
Frame rate : 187.500 FPS (256 spf)
Compression mode : Lossy
Delay relative to video : -948 ms
Stream size : 7.14 MiB (2%)



小科普:

杜比Dolby Vision 和 杜比Dolby Atmos有什么不同?可以看这个贴:http://www.touying.com/t/9873/1



杜比Dolby Vision 4K分辨率视频片段,配合杜比5.1音效

极致超清多彩的画面加上杜比5.1音效,有着非凡的视听感受!

下载地址:
游客,如果您要查看本帖隐藏内容请回复



上一篇:专业DTS:X 7.1环绕声测试演示片《目标模拟器》无损音质4K/615MB
下一篇:[蓝光原盘4] 杜比全景声演示碟,体验声临其境的震撼特效!
当贝市场
回复

使用道具 举报

43 个回复
倒序浏览
赶快下载来看看怎么样吧  看看怎么样   给下载
回复 支持 反对

使用道具 举报

杜比Dolby Vision 5.1声道视频4K演示片 五彩斑斓的色彩![298MB] [修改]
回复 支持 反对

使用道具 举报


杜比Dolby Vision 5.1声道视频4K演示片 五彩斑斓的色彩![298MB]
回复 支持 反对

使用道具 举报

下载看看效果
回复 支持 反对

使用道具 举报

9987545s高级投影控 发表于 2018-5-19 20:52 显示全部楼层
厉害!必须顶一个
回复 支持 反对

使用道具 举报

klsngoe高级投影控 发表于 2018-5-29 13:55 显示全部楼层
高手云集 果断围观
回复 支持 反对

使用道具 举报

折纸入门级投影控 发表于 2018-5-30 13:26 显示全部楼层
非常感谢
回复

使用道具 举报

投影网大神带带我
回复 支持 反对

使用道具 举报

陈洲发烧级投影控 发表于 2018-6-9 22:10 显示全部楼层
必须顶一个,支持投影网。
回复 支持 反对

使用道具 举报

3265651高级投影控 发表于 2018-6-12 10:51 显示全部楼层
感谢分享好资源内容
回复 支持 反对

使用道具 举报

axiauk入门级投影控 发表于 2018-6-16 21:48 显示全部楼层
杜比Dolby Vision 5.1声道视频4K演示片 五彩斑斓的色彩![298MB]
回复 支持 反对

使用道具 举报

好内容,果断马克了!
回复 支持 反对

使用道具 举报

快速回复

您需要登录后才可以回帖 登录 | 立即注册

本版积分规则

热门图文

热门板块
43快速回复